Skip to main content

All Thumbs Trio Live at Dunham's Living Room Party, Z93 FM on 2002-12-02




01. intro - interview - It (tease)
02. High & Low
03. interview
04. Trials and Tribulations
05. interview
06. Gone Gone Gone
07. interview
08. Burn the Coal
09. interview
10. Hacker Boy
11. interview
12. Django
13. interview
14. Little Wing
15. interview


Collection AllThumbsTrio
Band/Artist All Thumbs Trio
Date December 2, 2002
Venue Dunham's Living Room Party, Z93 FM
Location Atlanta, GA

Source FM > CD
Lineage CD > PIONEER DVD-RW DVR-112D > Powermac dual 1.42 MDD > iTunes v 7.2 > AIFF > xACT v 1.59 > FLAC
Taped by ?
Transferred by TAS


Notes

All Thumbs Trio
02 December 2002
Atlanta, GA
"from the Dunham's Living Room"
Z93 Radio Program


Source: FM > CD
Transfer: CD > PIONEER DVD-RW DVR-112D > Powermac dual 1.42 MDD > iTunes v 7.2 > AIFF > xACT v 1.59 > FLAC


THANKS MOCKMORE, MAT & KEVIN! LIFE IS GRAND!


01. intro - interview - It (tease)
02. High & Low (All Thumbs Trio)
03. interview
04. Trials and Tribulations (Cracker)
05. interview
06. Gone Gone Gone
07. interview
08. Burn the Coal (moe.)
09. interview
10. Hacker Boy (Johnny Hickman)
11. interview
12. Django (Gibb Droll)
13. interview
14. Little Wing (Jimi Hendrix)
15. interview


shntool results:
length expanded size cdr WAVE problems filename
5:31.12 58416668 --- -- ---xx ATT2002-12-02-FM-t01.flac
6:52.41 72773276 --- -- ---xx ATT2002-12-02-FM-t02.flac
1:49.00 19227644 --- -- ---xx ATT2002-12-02-FM-t03.flac
3:41.50 39102044 --- -- ---xx ATT2002-12-02-FM-t04.flac
2:17.37 24253868 --- -- ---xx ATT2002-12-02-FM-t05.flac
4:36.13 48717020 --- -- ---xx ATT2002-12-02-FM-t06.flac
8:18.72 88016588 --- -- ---xx ATT2002-12-02-FM-t07.flac
4:55.72 52207388 --- -- ---xx ATT2002-12-02-FM-t08.flac
1:41.37 17903468 --- -- ---xx ATT2002-12-02-FM-t09.flac
4:08.46 43855436 --- -- ---xx ATT2002-12-02-FM-t10.flac
1:44.23 18399740 --- -- ---xx ATT2002-12-02-FM-t11.flac
3:44.33 39591260 --- -- ---xx ATT2002-12-02-FM-t12.flac
1:30.26 15937196 --- -- ---xx ATT2002-12-02-FM-t13.flac
5:55.45 62727884 --- -- ---xx ATT2002-12-02-FM-t14.flac
0:55.71 9869036 --- -- ---xx ATT2002-12-02-FM-t15.flac
57:43.53 610998516 B (totals for 15 files, 0.6728 overall compression ratio)

Reviews

Reviewer: morst - - June 30, 2007
Subject: I'm not certain about song titles, but the sound and performance are top notch!
Five Stars *****!!!!!

And a request for more info, if anyone can fill in corrections, please post 'em as a review here!

Thanks to all!
PEOPLE ALSO FOUND
All Thumbs Trio
by All Thumbs Trio
2,517
2
1
( 1 reviews )
Source: FM > CD
Community Audio
by Vladimir Noskov
10
1
0
Camper Van Beethoven
by Camper Van Beethoven
13
2
0
Source: AUD > WAV @16/441
Cracker
by Cracker
3,440
1
0
Source: akg c1000s -> rolls pb224 -> sony mz-m10 (hi-sp)
Camper Van Beethoven
by Camper Van Beethoven
11,516
1
1
( 1 reviews )
Source: Sony ECM-717 > Sharp Minidisc MD-MT190
Cracker
by Cracker
718
1
1
( 1 reviews )
Source: Sonic Studio DSM-6S Mics>Sonic Studios PA-6LC2 LoCut>Edirol RO9 @24bit/44.1khz
Camper Van Beethoven
by Camper Van Beethoven
1,228
1
1
( 1 reviews )
Source: Audience > ? > cassette
Community Audio
by Tom Scharff
178
1
0
Source: Neumann KM140's > Beyer MV100 > Sony PCM-M10 > WAV @24-bit/48kHz
Karl Denson's Tiny Universe
by Karl Densons Tiny Universe
4,771
1
1
( 1 reviews )
Source: DAUD
Benevento/Russo
by Benevento/Russo
1,792
1
4
( 4 reviews )
Source: Neumann KM140's > Beyer MV100 > Zoom H2 @24bit/48KHz